V. A. [1988] – Gdynia [LP]

Taa. „Gdyni” też się dorobiłem… 🙂
No oko wyglądała super, ale trochę jednak trzeszczy…

Na blogu była już wprawdzie wrzuta tego albumu dostarczona przez fR, ale co dwa ripy, to nie jeden.
Ten „stary” rip jest oczyszczony z trzasków i wolniej idący niż mój. Moja strona A ma 19:25 z długimi fragmentami ciszy na początku i końcu, podczas gdy strona A na starym ripie, praktycznie bez żadnych fragmentów ciszy, ma 19:33. Czy moja tokara ma za szybkie obroty, czy ten „stary” rip był retimowany, czy płyty są różne…? A chuj wie.
Są dwa ripy, więc słuchajta, którego chceta.

Generalnie świetna płyta, a Pancerne rowery to po prostu rewelacja. Słychać, skąd się wzięła n.p. Ścianka. Rocka’s Delight też mega.



Dwa pliki flac + playlista w .cue + zdjęcia koperty i wkładki w .jpg:

https://mega.nz/#!zgJ2zKIC!hD8Nl48NfFDr5GbfRBM_1bHtXqIM9XSeTZDEQR5O_pc

Stary ale jary rip netowy, dostarczony przez fR:

https://mega.nz/#!alRnXZgA!nYTbpfApxShQe_Pn_11kJKojkhSj_ZYePOsJQePZi34

Aktualności:

Przywróciłem download drugiej płyty Mitchów, bo do kupienia na Serpencie i w sklepie Lado jest teraz tylko LP. Nie wiem, czemu downloadu flac / mp3 brak. And rules are rules.

One Response to V. A. [1988] – Gdynia [LP]

  1. Autor says:

    Gdyby ktoś chciał plik .cue w formacie PERFORMER + TITLE a nie samo TITLE, to w pliku .cue do tego albumu należy wpisać coś takiego:

    FILE „01. Strona A.flac” WAVE

    TRACK 01 AUDIO
    PERFORMER „Call System”
    TITLE „Szampan”
    INDEX 01 00:17:00

    TRACK 02 AUDIO
    PERFORMER „Apteka”
    TITLE „Synteza”
    INDEX 01 05:26:00

    TRACK 03 AUDIO
    PERFORMER „Pancerne rowery”
    TITLE „Nikt nam nie weźmie młodości”
    INDEX 01 08:35:30

    TRACK 04 AUDIO
    PERFORMER „Unrra”
    TITLE „Złap wiatr”
    INDEX 01 12:54:00

    TRACK 05 AUDIO
    PERFORMER „Bielizna”
    TITLE „Miłość w Jugosławii”
    INDEX 01 15:04:00

    FILE „02. Strona B.flac” WAVE

    TRACK 06 AUDIO
    PERFORMER „Sake”
    TITLE „Lubię to”
    INDEX 01 00:16:00

    TRACK 07 AUDIO
    PERFORMER „Po prostu”
    TITLE „Ład, ład bum cyk zet”
    INDEX 01 03:16:00

    TRACK 08 AUDIO
    PERFORMER „Po prostu”
    TITLE „Buty”
    INDEX 01 04:37:00

    TRACK 09 AUDIO
    PERFORMER „Rocka’s Delight”
    TITLE „Frontline”
    INDEX 01 07:01:00

    TRACK 10 AUDIO
    PERFORMER „Apteka”
    TITLE „AAA”
    INDEX 01 11:28:00

Skomentuj

Wprowadź swoje dane lub kliknij jedną z tych ikon, aby się zalogować:

Logo WordPress.com

Komentujesz korzystając z konta WordPress.com. Wyloguj /  Zmień )

Zdjęcie na Google+

Komentujesz korzystając z konta Google+. Wyloguj /  Zmień )

Zdjęcie z Twittera

Komentujesz korzystając z konta Twitter. Wyloguj /  Zmień )

Zdjęcie na Facebooku

Komentujesz korzystając z konta Facebook. Wyloguj /  Zmień )

w

Connecting to %s