V. A. [1986] – Jak punk to punk [LP]

Roboty z tym mnóstwo, ale dzisiaj szczęśliwie minąłem półmetek.
Jak oglądałem tę płytę, to miałem jej nie kupować. Jest ewidentnie dużo słuchana i tym samym mocno zjechana (rysy widoczne pod światło). Ale stwierdziłem, że jak pank, to pank.
Podstawowy problem z dźwiękiem to syczenie / trzeszczenie. Plus liczne i głośne „strzały”.
Strona A nawet spoko, niestety strona B gorzej. W B3 (Siekiera) najpierw płyta się zacinała, kilka minut później – przeskakiwała. Umyłem Ludwikiem – nie pomogło. A jest to środek uniwersalny, pomagający na wszystko: od niechcianej ciąży, przez problemy z erekcją po kaca giganta. Czyli nie jest dobrze…
Na 6 zrzutów tylko dwa wyszły takie, że płyta się nie zacięła. No a ten drugi przeskok wychodzi zawsze. Ewidentnie ktoś bardzo ukochał Siekierę i słuchał tych 2 kawałków w kółko…

Nie jest to duży problem, bo „Ja stoję, ja tańczę, ja walczę” wyszedł X razy na CD, przykładowo na 22 Polish Punk Classics.
Najważniejsze, że dobrze się zrzuciły te kawałki, których nie było potem na powyższym CD (Rejestracja, Abaddon, Processs).

Jak punk to punk.




Dwa pliki flac + playlista w .cue + zdjęcia koperty w .jpg:

https://mega.nz/#!q0xXnQxD!Y4biuH54oYwFBzUL2j--3XZ-tQQx_C5QZX2J0JPyZSI

One Response to V. A. [1986] – Jak punk to punk [LP]

  1. Autor says:

    Gdyby ktoś chciał plik .cue w formacie PERFORMER + TITLE a nie samo TITLE, to w pliku .cue do tego albumu należy wpisać coś takiego:

    FILE „01. Strona A.flac” WAVE

    TRACK 01 AUDIO
    PERFORMER „Armia”
    TITLE „Na ulice”
    INDEX 01 00:11:00

    TRACK 02 AUDIO
    PERFORMER „Armia”
    TITLE „Jestem drzewo, jestem ptak”
    INDEX 01 02:16:00

    TRACK 03 AUDIO
    PERFORMER „Armia”
    TITLE „Jeżeli”
    INDEX 01 04:37:00

    TRACK 04 AUDIO
    PERFORMER „Dezerter”
    TITLE „Nas nie ma”
    INDEX 01 08:51:00

    TRACK 05 AUDIO
    PERFORMER „Dezerter”
    TITLE „Uległość”
    INDEX 01 11:36:00

    TRACK 06 AUDIO
    PERFORMER „Rejestracja”
    TITLE „Numer 1125”
    INDEX 01 14:24:00

    TRACK 07 AUDIO
    PERFORMER „Rejestracja”
    TITLE „Wszystko można otoczyć mgłą”
    INDEX 01 17:18:00

    FILE „02. Strona B.flac” WAVE

    TRACK 08 AUDIO
    PERFORMER „TZN Xenna”
    TITLE „Gazety mówią”
    INDEX 01 00:12:00

    TRACK 09 AUDIO
    PERFORMER „TZN Xenna”
    TITLE „Co za świat”
    INDEX 01 02:07:00

    TRACK 10 AUDIO
    PERFORMER „Siekiera”
    TITLE „Ja stoję, ja tańczę, ja walczę”
    INDEX 01 03:53:00

    TRACK 11 AUDIO
    PERFORMER „Siekiera”
    TITLE „Ludzie Wschodu”
    INDEX 01 08:58:00

    TRACK 12 AUDIO
    PERFORMER „Abaddon”
    TITLE „Wet za wet”
    INDEX 01 13:13:00

    TRACK 13 AUDIO
    PERFORMER „Abaddon”
    TITLE „Kto”
    INDEX 01 15:26:00

    TRACK 14 AUDIO
    PERFORMER „Processs”
    TITLE „Stroszek”
    INDEX 01 17:45:00

Skomentuj

Wprowadź swoje dane lub kliknij jedną z tych ikon, aby się zalogować:

Logo WordPress.com

Komentujesz korzystając z konta WordPress.com. Wyloguj /  Zmień )

Zdjęcie na Google+

Komentujesz korzystając z konta Google+. Wyloguj /  Zmień )

Zdjęcie z Twittera

Komentujesz korzystając z konta Twitter. Wyloguj /  Zmień )

Zdjęcie na Facebooku

Komentujesz korzystając z konta Facebook. Wyloguj /  Zmień )

w

Connecting to %s