V. A. [1985] – Fala [LP]

Na samych Discogsach tę płytę ma 338 osób. Liczyłem więc, że ktoś ją kiedyś wrzuci. Niektórych ludzi, o których wiem, że ją mają, nawet bezpośrednio nudziłem o wrzutę. Bez skutku.

No ale, skoro Mahomet nie chciał przyjść do góry, to góra musiała przyjść do Mahometa…

Dźwięku nie poprawiałem, choć jest kilka głośnych trzasków tzw. „strzałowych” (np. sama końcówka Prowokacji – ktoś chyba „przewijał” płytę do Siekiery). DIY jakby co. Szczęśliwie trafił mi się egzemplarz w bardzo dobrym stanie, więc ani nie przeskakuje, ani bardzo nie trzeszczy.
Z głośnością nie przesadzałem, dzięki czemu dynamika wyszła chyba niezła.

Wszystkie osoby, które tę płytę mają, ale im się nie chciało zrzucić, czym narazili mnie na koszty finansowe oraz moralne, niniejszym gorąco pozdrawiam. 🙄

Dwa pliki flac + playlista w .cue + zdjęcia koperty i plakatu w .jpg.

https://mega.nz/#!KlxhgbAS!lafxl39GZp4vHINAu75cA71flthvDERbsORuL7ObKNA

Link jest do poprawionej wersji, bo pierwsza miała zły wpis w .cue i za bardzo skompresowane zdjęcia. Lekka wtopa z mojej strony, ale nie myli się tylko ten, kto nic nie robi.

One Response to V. A. [1985] – Fala [LP]

  1. Autor says:

    Gdyby ktoś chciał plik .cue w formacie PERFORMER + TITLE a nie samo TITLE, to w pliku .cue do tego albumu należy wpisać coś takiego:

    FILE „01. Strona A.flac” WAVE

    TRACK 01 AUDIO
    PERFORMER „12 Ra”
    TITLE „Intro”
    INDEX 01 00:08:00

    TRACK 02 AUDIO
    PERFORMER „Bakszysz”
    TITLE „Czarna droga”
    INDEX 01 00:53:50

    TRACK 03 AUDIO
    PERFORMER „Prowokacja”
    TITLE „Prawo do życia, czyli kochanej mamusi”
    INDEX 01 04:31:40

    TRACK 04 AUDIO
    PERFORMER „Siekiera”
    TITLE „Fala”
    INDEX 01 07:16:00

    TRACK 05 AUDIO
    PERFORMER „Siekiera”
    TITLE „Idzie wojna”
    INDEX 01 08:36:00

    TRACK 06 AUDIO
    PERFORMER „Abaddon”
    TITLE ” – Kto”
    INDEX 01 12:04:00

    TRACK 07 AUDIO
    PERFORMER „Tilt”
    TITLE „Za zamkniętymi drzwiami (Widziałem cię)”
    INDEX 01 13:59:00

    TRACK 08 AUDIO
    PERFORMER „Dezerter”
    TITLE „Nie ma zagrożenia”
    INDEX 01 17:13:00

    FILE „02. Strona B.flac” WAVE

    TRACK 09 AUDIO
    PERFORMER „Kryzys”
    TITLE „Mam dość”
    INDEX 01 00:10:00

    TRACK 10 AUDIO
    PERFORMER „Kultura”
    TITLE „Lew Ja i Ja Dub”
    INDEX 01 02:54:00

    TRACK 11 AUDIO
    PERFORMER „Rio Ras”
    TITLE „City Huk”
    INDEX 01 05:19:00

    TRACK 12 AUDIO
    PERFORMER „Dezerter”
    TITLE „Plakat”
    INDEX 01 08:33:20

    TRACK 13 AUDIO
    PERFORMER „Izrael”
    TITLE „Wolność”
    INDEX 01 11:32:30

    TRACK 14 AUDIO
    PERFORMER „Józef Broda”
    TITLE „Swoboda”
    INDEX 01 19:19:00

Skomentuj

Wprowadź swoje dane lub kliknij jedną z tych ikon, aby się zalogować:

Logo WordPress.com

Komentujesz korzystając z konta WordPress.com. Wyloguj /  Zmień )

Zdjęcie na Google+

Komentujesz korzystając z konta Google+. Wyloguj /  Zmień )

Zdjęcie z Twittera

Komentujesz korzystając z konta Twitter. Wyloguj /  Zmień )

Zdjęcie na Facebooku

Komentujesz korzystając z konta Facebook. Wyloguj /  Zmień )

Connecting to %s